Read More.. | Eps13 Little Women: LA - Season 7 (2018) | Nancy Robertson

Witaj Gościu! jeżeli widzisz ten dymek to znaczy że nie jesteś zarejestrowany/zalogowany. Kliknij by się zarejestrować. Rejestracja zajmie mniej niż 30 sekund, a dzięki niej zyskasz możliwość pobierania, komentowania oraz dodawania torrentów !

MENU


Kategorie
Read More.. | Eps13 Little Women: LA - Season 7 (2018) | Nancy Robertson


FACEBOOK


PROGRAMY


WspółPraca
Poradnik
KAN


ZAGŁOSUJ NA NAS


Torrent



Torrent: There Was a Crooked Man... (1970)-alE13
Dodał:  alE13
Data: 13-06-2018
Rozmiar: 11.74 GB
Seed: 1
Peer: 1
Kondycja:
Zaloguj się aby pobrać


Kategoria:  Filmy BluRay/HDTV 1080p
Gatunek: Wojenne / Western
Zaakceptował: piotras78
Liczba pobrań: ---
Liczba komentarzy: 0
Ostatnia aktualizacja: 2018-06-13 14:14:33

OPIS:





http://www.imdb.com/title/tt0066448/
http://www.filmweb.pl/film/By%C5%82+sobie+%C5%82ajdak-1970-31620

Plik zawiera Sample.

reżyseria: Joseph L. Mankiewicz
scenariusz: Robert Benton,David Newman
gatunek: Western
produkcja: USA
premiera: 19-09-1970
muzyka:         Charles Strouse
zdjęcia:        Harry Stradling Jr.
czas:



A charming but totally ruthless criminal is sent to a remote Arizona prison. He enlists the help of his cellmates
in an escape attempt with the promise of sharing his hidden loot.

Paris Pitman Jr. i jego banda napadają na bogatego farmera. Rabują mu 500.000 $. Jednakże Pitman podczas napadu,
przygląda się jak giną jego koledzy. Wkrótce sam zgarnia łup i ukrywa go w jamie skalnej. Nie wie, iż jama ta jest
zamieszkała przez grzechotnika. Wkrótce Pitman trafia do więzienia. Dyrektor Le Goff próbuje dowiedzieć się, gdzie
Pitman ukrył łup, lecz ginie w tajemniczych okolicznościach. Pitman zaś wraz z innymi więźniami knuje ucieczkę. Nowy
dyrektor Lopeman, zupełnie nie interesuje się więźniami. Dochodzi do zamieszek, a więźniowie uciekają. Pitman z zimną
krwią zabija, wspólnika, więźnia który chciał z nim ruszyć. Nie wie jednak, że jego śladem podąża jeszcze ktoś...



Kirk Douglas, Henry Fonda, Hume Cronyn



There Was a Crooked Man... (1970)-alE13.mkv
Format                      : Matroska
Format version              : Version 4 / Version 2
File size                   : 11.7 GiB
Duration                    : 2 h 3 min
Overall bit rate mode       : Variable
Overall bit rate            : 13.5 Mb/s
Movie name                  : There Was a Crooked Man... (1970)-alE13
Encoded date                : UTC 2018-06-13 11:30:42
Writing application         : mkvmerge v8.1.0 ('Psychedelic Postcard' 64bit
Writing library             : libebml v1.3.1 + libmatroska v1.4.2
Cover                       : Yes
Attachments                 : Cover.jpg

Video
ID                          : 1
Format                      : AVC
Format/Info                 : Advanced Video Codec
Format profile              : [email protected]
Format settings             : CABAC / 4 Ref Frames
Format settings, CABAC      : Yes
Format settings, ReFrames   : 4 frames
Codec ID                    : V_MPEG4/ISO/AVC
Duration                    : 2 h 3 min
Bit rate mode               : Variable
Bit rate                    : 13.1 Mb/s
Maximum bit rate            : 15.0 Mb/s
Width                       : 1 920 pixels
Height                      : 1 080 pixels
Display aspect ratio        : 16:9
Frame rate mode             : Constant
Frame rate                  : 23.976 (23976/1000) FPS
Original frame rate         : 23.976 (24000/1001) FPS
Color space                 : YUV
Chroma subsampling          : 4:2:0
Bit depth                   : 8 bits
Scan type                   : Progressive
Bits/(Pixel*Frame)          : 0.263
Stream size                 : 11.3 GiB (96%)
Title                       : There Was a Crooked Man... (1970)-alE13
Language                    : English
Default                     : Yes
Forced                      : No
Color range                 : Limited
Color primaries             : BT.709
Transfer characteristics    : BT.709
Matrix coefficients         : BT.709

Audio #1
ID                          : 2
Format                      : E-AC-3
Format/Info                 : Enhanced Audio Coding 3
Codec ID                    : A_EAC3
Duration                    : 2 h 3 min
Bit rate mode               : Constant
Bit rate                    : 224 kb/s
Channel(s)                  : 2 channels
Channel positions           : Front: L R
Sampling rate               : 48.0 kHz
Frame rate                  : 187.500 FPS (256 SPF)
Compression mode            : Lossy
Stream size                 : 198 MiB (2%)
Title                       : There Was a Crooked Man... (1970)-alE13_AC3
Language                    : English
Service kind                : Complete Main
Default                     : No
Forced                      : No

Audio #2
ID                          : 4
Format                      : AC-3
Format/Info                 : Audio Coding 3
Codec ID                    : A_AC3
Duration                    : 2 h 3 min
Bit rate mode               : Constant
Bit rate                    : 256 kb/s
Channel(s)                  : 2 channels
Channel positions           : Front: L R
Sampling rate               : 48.0 kHz
Frame rate                  : 31.250 FPS (1536 SPF)
Bit depth                   : 16 bits
Compression mode            : Lossy
Delay relative to video     : 2 s 200 ms
Stream size                 : 226 MiB (2%)
Title                       : There Was a Crooked Man... (1970)-alE13_AC3
Language                    : Polish
Service kind                : Complete Main
Default                     : Yes
Forced                      : No

Text
ID                          : 3
Format                      : UTF-8
Codec ID                    : S_TEXT/UTF8
Codec ID/Info               : UTF-8 Plain Text
Duration                    : 2 h 3 min
Bit rate                    : 47 b/s
Count of elements           : 1611
Stream size                 : 42.4 KiB (0%)
Title                       : There Was a Crooked Man... (1970)-alE13_SDH
Language                    : English
Default                     : No
Forced                      : No

Menu
00:00:00.000                : en:Chapter 01
00:12:23.305                : en:Chapter 02
00:19:52.020                : en:Chapter 03
00:30:20.431                : en:Chapter 04
00:42:56.562                : en:Chapter 05
00:52:29.634                : en:Chapter 06
01:01:55.712                : en:Chapter 07
01:13:21.689                : en:Chapter 08
01:24:28.313                : en:Chapter 09
01:32:25.707                : en:Chapter 10
01:42:58.571                : en:Chapter 11
01:51:03.598                : en:Chapter 12

DETALE TORRENTA:[ ]
PodziękowaniaNikt jeszcze nie podziękował.
 


Podobne pliki
Nie znaleziono podobnych tytułów!


Komentarze