Wallpapers with girls of magic beauty | Die Ren Stimpy Show | Meiert Avis

Witaj Gościu! jeżeli widzisz ten dymek to znaczy że nie jesteś zarejestrowany/zalogowany. Kliknij by się zarejestrować. Rejestracja zajmie mniej niż 30 sekund, a dzięki niej zyskasz możliwość pobierania, komentowania oraz dodawania torrentów !

MENU


Kategorie
Wallpapers with girls of magic beauty | Die Ren Stimpy Show | Meiert Avis


FACEBOOK


PROGRAMY


WspółPraca
Poradnik
KAN


ZAGŁOSUJ NA NAS


Torrent



Torrent: Piekna i Bestia *1991* [BluRay 720p x264 AC3-LTN] [Dubbing PL]
Dodał:  viola62
Data: 28-01-2017
Rozmiar: 4.32 GB
Seed: 1
Peer: 3
Kondycja:
Zaloguj się aby pobrać


Kategoria:  Bajki Pl/Eng

Zaakceptował: Nie wymagał akceptacji
Liczba pobrań: 135
Liczba komentarzy: 0
Ostatnia aktualizacja: 2017-08-18 15:42:16

OPIS:




Tytuł: Beauty and the Beast
Polski Tytuł: Piękna i Bestia

Reżyseria: Kirk Wise
Scenariusz: Krystyna Skibińska-Subocz
Gatunek: Animacja, familijny, fantasy, musical, romans
Kraj: USA
Rok produkcji: 1991
Czas trwania: 90 minut
Ocena: 8,33/10





http://www.filmweb.pl/film/Pi%C4%99kna+i+Bestia-1991-31366

http://www.imdb.com/title/tt0101414/?ref_=fn_al_tt_2

http://fdb.pl/film/2700-piekna-i-bestia





Niezwykła, sentymentalna opowieść o rozkwitaniu prawdziwej miłości z dużą dozą magii, humoru, tragizmu, romantyzmu, w przepięknej baśniowej scenerii. Dawno, dawno temu w małyma miasteczku żyła sobie zwykła dziewczyna o imieniu Bella. Była bardzo piękna. Zaczytana w książkach nie zwracała uwagi na otaczających ją zalotników. Natomiast w mrocznym, wiecznie spowitym mgłą lesie, stało zapomniane zamczysko. Dawniej żył w nim przystojny, lecz samolubny książe. Za egoizm i nieczułość na ludzkie cierpienia na cały zamek i jego mieszkańców rzucono zaklęcie, przez co książe zamienił się w odrażającą budzącą strach rogatą bestię, a służbę zamkową zamieniono w przedmioty. Warunkiem powrotu do ludzkiej postaci jest obdażenie człowieka miłością z odwzajemnieniem. Bestii pozostawiono czerwoną różę mającą przypominać o upływającym czasie: "Musisz zdążyć nim opadnie ostani płatek róży. Jeśli ci się to nie uda, do końca swoich dni pozostaniesz Bestią!". Przeznaczenie sprowadziło do siebie te dwie postcie. Bella będąca uosobieniem dobroci sprawia, że Bestia powoli zmienia swoje nastawienie do życia i ludzi. Mimo początkowej niechęci bohaterowie stopniowo zaprzyjaźniają się, a gdzieś wysoko w Zachodnim Skrzydle zamczyska róża traci swoje płatki. Czy Bestii uda się odwrócić działanie czaru? Czy można pokonać odrażające monstrum?





Liz Callaway - Różne głosy
Maureen Brennan - Różne głosy
Vanna Bonta - Różne głosy
Scott Barnes - Różne głosy
Bruce Adler - Różne głosy
Jack Angel - Różne głosy
Kath Soucie - Wielbicielka Gastona
Mary Kay Bergman - Wielbicielka Gastona
Frank Welker - Podnóżek
Hal Smith - Filip
Brian Cummings - Piec
Tony Jay - Monsieur D'Arque
Paige O'Hara - Belle
Robby Benson - Bestia
Richard White - Gaston






Format                      : Matroska
Format version              : Version 2
File size                   : 4.32 GiB
Duration                    : 1h 31mn
Overall bit rate            : 6 728 Kbps
Encoded date                : UTC 2015-01-26 16:35:41
Writing application         : mkvmerge v7.0.0 ('Where We Going' 32bit built on Jun  9 2014 15:08:34
Writing library             : libebml v1.3.0 + libmatroska v1.4.1
DURATION                    : 01:24:31.775000000
NUMBER_OF_FRAMES            : 2400
NUMBER_OF_BYTES             : 10118112
_STATISTICS_WRITING_APP     : mkvmerge v7.0.0 ('Where We Going' 32bit built on Jun  9 2014 15:08:34
_STATISTICS_WRITING_DATE_UT : 2015-01-26 16:35:41
_STATISTICS_TAGS            : BPS DURATION NUMBER_OF_FRAMES NUMBER_OF_BYTES

Video
ID                          : 1
Format                      : AVC
Format/Info                 : Advanced Video Codec
Format profile              : [email protected]
Format settings, CABAC      : Yes
Format settings, ReFrames   : 4 frames
Codec ID                    : V_MPEG4/ISO/AVC
Duration                    : 1h 31mn
Bit rate                    : 5 424 Kbps
Width                       : 1 920 pixels
Height                      : 1 080 pixels
Display aspect ratio        : 16:9
Frame rate mode             : Constant
Frame rate                  : 23.976 fps
Color space                 : YUV
Chroma subsampling          : 4:2:0
Bit depth                   : 8 bits
Scan type                   : Progressive
Bits/(Pixel*Frame)          : 0.109
Stream size                 : 3.41 GiB (79%)
Writing library             : x264 core 142 r2431 ac76440
Encoding settings           : cabac=1 / ref=3 / deblock=1:0:0 / analyse=0x3:0x113 / me=hex / subme=7 / psy=1 / psy_rd=1.00:0.00 / mixed_ref=1 / me_range=16 / chroma_me=1 / trellis=1 / 8x8dct=1 / cqm=0 / deadzone=21,11 / fast_pskip=1 / chroma_qp_offset=-2 / threads=12 / lookahead_threads=2 / sliced_threads=0 / nr=0 / decimate=1 / interlaced=0 / bluray_compat=0 / constrained_intra=0 / bframes=3 / b_pyramid=2 / b_adapt=1 / b_bias=0 / direct=1 / weightb=1 / open_gop=0 / weightp=2 / keyint=240 / keyint_min=23 / scenecut=40 / intra_refresh=0 / rc_lookahead=40 / rc=2pass / mbtree=1 / bitrate=5424 / ratetol=1.0 / qcomp=0.60 / qpmin=0 / qpmax=69 / qpstep=4 / cplxblur=20.0 / qblur=0.5 / vbv_maxrate=50000 / vbv_bufsize=50000 / nal_hrd=none / filler=0 / ip_ratio=1.40 / aq=1:1.00
Default                     : Yes
Forced                      : No

Audio #1
ID                          : 2
Format                      : AC-3
Format/Info                 : Audio Coding 3
Mode extension              : CM (complete main)
Format settings, Endianness : Big
Codec ID                    : A_AC3
Duration                    : 1h 31mn
Bit rate mode               : Constant
Bit rate                    : 640 Kbps
Channel(s)                  : 6 channels
Channel positions           : Front: L C R, Side: L R, LFE
Sampling rate               : 48.0 KHz
Compression mode            : Lossy
Stream size                 : 420 MiB (10%)
Language                    : Polish
Default                     : Yes
Forced                      : No

Audio #2
ID                          : 3
Format                      : AC-3
Format/Info                 : Audio Coding 3
Mode extension              : CM (complete main)
Format settings, Endianness : Big
Codec ID                    : A_AC3
Duration                    : 1h 31mn
Bit rate mode               : Constant
Bit rate                    : 640 Kbps
Channel(s)                  : 6 channels
Channel positions           : Front: L C R, Side: L R, LFE
Sampling rate               : 48.0 KHz
Compression mode            : Lossy
Stream size                 : 420 MiB (10%)
Language                    : English
Default                     : No
Forced                      : No

Text #1
ID                          : 4
Format                      : PGS
Muxing mode                 : zlib
Codec ID                    : S_HDMV/PGS
Codec ID/Info               : Picture based subtitle format used on BDs/HD-DVDs
Language                    : Polish
Default                     : No
Forced                      : No

Text #2
ID                          : 5
Format                      : PGS
Muxing mode                 : zlib
Codec ID                    : S_HDMV/PGS
Codec ID/Info               : Picture based subtitle format used on BDs/HD-DVDs
Language                    : English
Default                     : No
Forced                      : No


PS/ POBRALES --------> SEEDUJ /THX/

DETALE TORRENTA:[ ]
Podziękowania,
 




Komentarze